#TITLE:Amusement Park Of Starlight;
#SUBTITLE:;
#ARTIST:Twins;
#TITLETRANSLIT:Amusement Park Of Starlight;
#SUBTITLETRANSLIT:;
#ARTISTTRANSLIT:Twins;
#CREDIT:;
#BANNER:Amusement Park Of Starlight-bn.png;
#BACKGROUND:Amusement Park Of Starlight-bg.png;
#LYRICSPATH:;
#CDTITLE:pm4cd.png;
#MUSIC:Amusement Park Of Starlight.mp3;
#OFFSET:0.060;
#SAMPLESTART:58.620;
#SAMPLELENGTH:20.000;
#SELECTABLE:YES;
#BPMS:0.000=100.000;
#STOPS:;
#BGCHANGES:;
// cache tags:
#FIRSTBEAT:2.750;
#LASTBEAT:400.250;
#SONGFILENAME:Songs/Music V.I.P ^_^/Amusement Park Of Starlight/Amusement Park Of Starlight.sm;
#HASMUSIC:1;
#HASBANNER:1;
#MUSICLENGTH:243.800;
// end cache tags

//---------------dance-single - ----------------
#NOTES:
     dance-single:
     :
     Hard:
     9:
     0.602,0.554,1.000,0.053,1.000,652.000,354.000,13.000,0.000,13.000:
0000
0000
0000
0000
0000
0000
0000
0000
0000
0000
0000
0001
0000
0000
0000
1000
,
0000
0100
0000
0010
0000
0100
0000
0001
0000
0100
0000
0000
0000
1000
0000
0000
,
0000
0000
0000
0000
0000
0000
0000
0001
0000
0010
0000
1000
0000
0000
0000
0010
,
0000
0100
0000
0001
0000
1000
0000
0000
0000
0010
0000
0000
0000
0000
0000
0000
,
0000
0000
0000
0000
0000
0001
0000
0010
0000
1000
0000
0100
0000
0000
0000
0010
,
0000
0100
0000
0001
0000
0100
0000
1000
0000
0001
0000
0000
0000
0001
0000
0000
,
0000
0000
0000
0100
0000
0100
0000
0001
0000
0010
0000
1000
0000
0000
0000
0100
,
0000
0010
0000
0001
0000
0100
0000
0000
0000
0010
0000
0000
0000
0000
0000
0000
,
0000
0000
0000
0000
0000
0000
0000
0000
0000
0000
0000
0101
0000
0010
0000
0011
,
0000
0100
0000
1010
0000
1010
0000
0011
0000
0000
0000
1010
0000
0100
0000
1100
,
0000
0010
0000
0101
0000
0101
0000
0011
0000
0000
0000
0101
0000
0010
0000
0011
,
0000
0100
0000
1010
0000
1010
0000
0011
0000
0000
0000
0001
0000
0010
0000
0100
,
0000
1000
0000
0101
0000
0010
0000
0110
0000
0000
0000
0101
0000
0010
0000
0011
,
0000
0100
0000
1010
0000
1010
0000
0011
0000
0000
0000
1010
0000
0100
0000
1100
,
0000
0010
0000
0101
0000
0101
0000
0011
0000
0000
0000
0101
0000
0010
0000
0011
,
0000
0100
0000
1010
0000
1010
0000
0011
0000
1000
0000
0001
0000
0010
0000
0100
,
0000
1000
0000
0101
0000
0010
0000
0101
0000
0010
0000
0011
0000
0010
0000
0010
,
0000
0010
0000
1010
0000
1010
0000
0110
0000
0000
0000
0011
0000
0010
0000
0010
,
0000
0010
0000
1010
0000
1010
0000
0011
0000
0000
0000
1010
0000
0100
0000
0110
,
0000
0010
0000
0101
0000
0101
0000
1100
0000
0000
0000
0101
0000
0010
0000
0110
,
0000
1000
0000
0100
0000
0010
0000
0011
0000
0000
0000
0101
0000
0010
0000
0100
,
0000
1000
0000
0101
0000
0101
0000
0011
0000
0000
0000
1010
0000
0100
0000
0010
,
0000
0001
0000
1010
0000
1010
0000
1100
0000
0000
0000
0101
0000
0010
0000
0110
,
0000
0100
0000
1010
0000
1010
0000
0011
0000
0000
0000
1100
0000
0100
0000
1100
,
0000
1000
0000
1000
0000
0001
0001
0110
0000
0110
0110
0001
0000
0010
0000
0011
,
0000
0100
0000
1010
0000
1010
0000
0110
0000
0000
0000
1010
0000
0100
0000
0110
,
0000
0001
0000
0101
0000
0101
0000
0110
0000
0000
0000
0101
0000
0000
0000
0011
,
0000
0000
0000
1010
0000
1010
0000
0011
0000
0000
0000
0101
0000
0010
0000
0110
,
0000
1000
0000
1010
0000
1010
0000
1100
0000
0100
0000
0111
0000
0000
0000
0011
,
0000
0000
0000
1010
0000
1010
0000
0110
0000
0000
0000
1010
0000
0000
0000
0110
,
0000
0000
0000
0101
0000
0101
0000
0011
0000
0000
0000
1010
0000
0100
0000
0110
,
0000
0001
0000
0101
0000
0101
0000
0011
0000
0000
0000
0011
0000
0001
0000
0011
,
0000
0001
0000
0010
0000
0010
0000
1100
0000
1100
1100
0001
0000
0010
0000
0011
,
0000
0010
0000
1010
0000
1010
0000
0110
0000
0000
0000
0101
0000
0010
0000
0011
,
0000
0100
0000
1010
0000
1010
0000
0011
0000
0000
0000
1010
0000
0100
0000
1100
,
0000
0010
0000
0101
0000
0101
0000
0011
0000
0000
0000
0101
0000
0010
0000
0011
,
0000
0100
0000
1010
0000
1010
0000
0011
0000
0000
0000
1110
0000
0000
0000
0011
,
0000
0000
0000
1010
0000
1010
0000
0011
0000
0000
0000
0101
0000
0000
0000
0011
,
0000
0000
0000
0101
0000
0101
0000
1100
0000
0000
0000
0101
0000
0010
0000
0011
,
0000
0010
0000
1010
0000
1010
0000
0110
0000
0000
0000
0011
0000
0001
0000
0011
,
0000
0001
0000
1000
0000
1000
0000
0111
0000
0011
0011
2000
0000
0000
0000
0100
,
0000
0000
0000
0100
0000
0000
0000
0100
0000
0000
0000
3002
0000
0000
0000
0010
,
0000
0000
0000
0010
0000
0000
0000
0010
0000
0000
0000
0203
0000
0000
0000
1000
,
0000
0000
0000
1000
0000
0000
0000
1000
0000
0000
0000
0310
0000
0001
0000
0110
,
0000
0001
0000
1100
0000
0001
0000
0110
0000
0001
0000
2000
0000
0000
0000
0100
,
0000
0000
0000
0100
0000
0000
0000
0100
0000
0000
0000
3002
0000
0000
0000
0010
,
0000
0000
0000
0010
0000
0000
0000
0010
0000
0000
0000
0203
0000
0000
0000
1000
,
0000
0000
0000
1000
0000
0000
0000
1000
0000
0000
0000
0310
0000
1000
0000
0110
,
0000
1000
0000
0001
0000
0001
0000
0110
0000
0110
0110
1000
0000
0000
0000
1010
,
0000
0100
0000
1000
0000
0100
0000
0010
0000
0000
0000
1000
0000
0100
0000
1010
,
0000
0001
0000
0000
0000
0100
0000
0011
0011
0011
0000
1110
0000
0000
0000
0000
,
0000
0000
0000
0010
0000
0010
0000
0011
0000
0000
0000
0101
0000
0000
0000
0011
,
0000
0000
0000
1010
0000
1010
0000
0110
0000
0000
0000
0101
0000
0010
0000
0011
,
0000
0100
0000
1010
0000
1010
0000
0110
0000
0000
0000
0001
0000
0010
0000
0100
,
0000
1000
0000
0101
0000
0010
0000
0011
0000
0000
0000
0101
0000
0010
0000
0011
,
0000
0100
0000
1010
0000
1010
0000
0110
0000
0000
0000
1010
0000
0100
0000
0110
,
0000
0010
0000
0101
0000
0101
0000
0011
0000
0000
0000
0101
0000
0010
0000
0011
,
0000
0010
0000
1010
0000
1010
0000
0110
0000
0001
0000
1000
0000
0100
0000
0010
,
0000
0001
0000
0101
0000
0101
0000
0110
0000
0001
0000
0101
0000
0010
0000
0010
,
0000
0010
0000
0101
0000
0101
0000
0011
0000
0000
0000
1010
0000
0100
0000
0100
,
0000
0100
0000
1010
0000
1010
0000
0110
0000
0000
0000
0101
0000
0000
0000
0011
,
0000
0000
0000
1010
0000
1010
0000
0011
0000
0000
0000
0101
0000
1000
0000
0100
,
0000
0010
0000
0101
0000
0101
0000
0011
0000
0000
0000
1010
0000
0001
0000
0010
,
0000
0100
0000
1010
0000
1010
0000
0011
0000
0000
0000
1010
0000
0100
0000
0010
,
0000
0001
0000
0101
0000
0101
0000
1100
0000
0000
0000
0101
0000
0010
0000
0011
,
0000
0100
0000
1010
0000
1010
0000
0011
0000
0000
0000
0011
0000
0001
0000
0011
,
0000
0001
0000
1000
0000
1000
1000
0110
0000
0110
0110
1000
0000
0100
0000
1100
,
0000
0010
0000
0101
0000
0101
0000
0011
0000
0010
0000
0101
0000
0010
0000
0011
,
0000
0100
0000
1010
0000
1010
0000
0011
0000
0100
0000
1010
0000
0100
0000
0011
,
0000
0100
0000
0101
0000
0101
0000
1100
0000
0010
0000
0101
0000
0010
0000
0011
,
0000
0100
0000
0101
0000
0101
0000
0110
0000
1000
0000
1110
0000
0000
0000
0110
,
0000
0010
0000
0101
0000
0101
0000
0011
0000
0100
0000
1010
0000
0100
0000
0110
,
0000
0010
0000
0101
0000
0101
0000
1100
0000
0010
0000
0101
0000
0000
0000
0110
,
0000
0000
0000
1010
0000
0000
0000
0110
0000
0000
0000
1100
0000
0100
0000
1100
,
0000
1000
0000
1000
0000
1000
1000
0110
0000
0011
0011
0100
0000
0010
0000
0011
,
0000
0010
0000
1010
0000
1010
0000
0110
0000
0000
0000
1010
0000
0100
0000
1100
,
0000
0010
0000
0101
0000
0101
0000
1100
0000
0000
0000
0101
0000
0010
0000
0011
,
0000
0100
0000
1010
0000
1010
0000
1100
0000
0000
0000
1010
0000
0100
0000
1100
,
0000
0010
0000
0101
0000
0101
0000
1100
0000
0000
0000
1101
0000
0000
0000
0011
,
0000
0000
0000
0101
0000
0101
0000
1100
0000
0000
0000
1010
0000
0000
0000
1100
,
0000
0000
0000
1010
0000
1010
0000
0011
0000
0000
0000
1010
0000
0100
0000
1100
,
0000
0100
0000
0101
0000
0101
0000
0110
0000
0000
0000
1100
0000
1000
0000
1100
,
0000
1000
0000
0001
0000
0001
0000
1011
0000
0110
0110
1000
0000
0100
0000
1100
,
0000
0100
0000
0101
0000
0101
0000
0110
0000
0000
0000
0101
0000
0010
0000
0011
,
0000
0100
0000
1010
0000
1010
0000
0011
0000
0000
0000
1010
0000
0100
0000
1100
,
0000
0010
0000
0101
0000
0101
0000
0011
0000
0000
0000
0101
0000
0010
0000
0011
,
0000
0100
0000
1010
0000
1010
0000
0011
0000
0000
0000
1110
0000
0000
0000
1100
,
0000
0000
0000
1010
0000
1010
0000
0011
0000
0000
0000
0101
0000
0000
0000
0011
,
0000
0000
0000
0101
0000
0101
0000
1100
0000
0000
0000
0111
0000
0000
0000
0110
,
0000
0010
0000
1010
0000
1010
0000
0011
0000
0100
0000
0011
0000
0010
0000
0110
,
0000
0010
0000
0110
0000
0100
0000
1100
0000
1000
0000
0012
0000
0100
0000
1000
,
0000
1000
0000
0010
0000
0010
0000
1000
0000
0000
0000
2103
0000
0010
0000
0001
,
0000
0001
0000
0100
0000
0100
0000
0001
0000
0000
0000
3012
0000
0100
0000
1000
,
0000
1000
0000
0010
0000
0010
0000
1000
0000
0000
0000
0103
0000
1000
0000
0110
,
0000
0010
0000
1010
0000
1010
0000
0011
0000
0000
0000
2100
0000
0010
0000
0001
,
0000
0001
0000
0100
0000
0100
0000
0001
0000
0000
0000
3012
0000
0100
0000
1000
,
0000
1000
0000
0010
0000
0010
0000
1000
0000
0000
0000
2103
0000
0010
0000
0001
,
0000
0001
0000
0100
0000
0100
0000
0001
0000
0000
0000
3001
0000
0010
0000
0011
,
0000
0100
0000
1000
0000
0000
0000
1010
0000
0011
0011
2000
0000
0000
0000
0000
,
0000
0000
0000
0000
,
0000
3000
0000
0000
0000
0000
0000
0000
0000
0000
0000
0000
0000
0000
0000
0000
;
